Download Alexandra Stan - Lemonade
Download Alexandra Stan - Lemonade

Alexandra Stan - Lemonade

SHARE

Alexandra Stan - Lemonade

Voteaza

Alexandra Stan - Lemonade

Rating 0.0/5 (0) voturi

Daca acest fisier, Alexandra Stan - Lemonade nu se mai poate descarca sau incalca termenii si conditiile site-ului Altrix.ucoz.com ori drepturile PERSONALE ! de autor. CLICK HERE

Adaugat de: altrix - Vineri, 03.08.12, 18:19

Pentru a descarca

Alexandra Stan - Lemonade

Alege unul din serverele de mai jos

Download Alexandra Stan - Lemonade Link 1 Download Alexandra Stan - Lemonade Link 2

0694
Intra pe acszone.hitforum.ro

Iti multumim ca ai descarcat Alexandra Stan - Lemonade de pe site-ul nostru si speram ca vei reveni in curand sa descarci si alte fisiere asemanatoare cu Alexandra Stan - Lemonade .

Bine ai venit Pe Altrix.Ucoz.Com !

Aici poti sa gasesti si sa descarci gratis: Muzica Noua 2015, Muzica Gratis, Muzica Romaneasca, Download Free, Manele Noi (2015), Albume Muzica, Muzica Straina (2015), Albume Muzica, Muzica Romaneasca (2015), Albume Muzica, Download Muzica Populara (2015), manele gratis, download muzica gratis, mp3 gratis, manele noi, MP3 noi, Muzica Noua 2014, manele gratis, video manele, download manele 2014, Descarca Muzica Gratis - Download Muzica Noua 2014, Descarca Muzica Ta Gratuita! | Muzica Noua 2015 | Muzica, Download Alexandra Stan - Lemonade, Download Videoclipuri Muzica, Download Videoclipuri Noi.



Altrix.ucoz.com | Descarca Videoclipuri | Alexandra Stan - Lemonade

 
 

Informati Despre Videoclip.

 


Format : MPEG-4
Format profile : Base Media / Version 2
Codec ID : mp42
File size : 63.6 MiB
Duration : 3mn 29s
Overall bit rate mode : Variable
Overall bit rate : 2 540 Kbps
Encoded date : UTC 2012-06-03 12:03:08
Tagged date : UTC 2012-06-03 12:03:08
gsst : 0
gstd : 210000
gssd : B5061D146HH1344010248854992
gshh : o-o---preferred---romtele-bbu1---v5---lscache6.c.youtube.com

Video
ID : 1
Format : AVC
Format/Info : Advanced Video Codec
Format profile : High@L3.1
Format settings, CABAC : Yes
Format settings, ReFrames : 1 frame
Codec ID : avc1
Codec ID/Info : Advanced Video Coding
Duration : 3mn 29s
Bit rate : 2 386 Kbps
Maximum bit rate : 4 096 Kbps
Width : 1 280 pixels
Height : 720 pixels
Display aspect ratio : 16:9
Frame rate mode : Constant
Frame rate : 25.000 fps
Color space : YUV
Chroma subsampling : 4:2:0
Bit depth : 8 bits
Scan type : Progressive
Bits/(Pixel*Frame) : 0.104
Stream size : 59.7 MiB (94%)
Tagged date : UTC 2012-06-03 12:03:08

Audio
ID : 2
Format : AAC
Format/Info : Advanced Audio Codec
Format profile : LC
Codec ID : 40
Duration : 3mn 29s
Bit rate mode : Variable
Bit rate : 152 Kbps
Maximum bit rate : 181 Kbps
Channel(s) : 2 channels
Channel positions : Front: L R
Sampling rate : 44.1 KHz
Compression mode : Lossy
Stream size : 3.80 MiB (6%)
Title : IsoMedia File Produced by Google, 5-11-2011
Encoded date : UTC 2012-06-03 12:03:08
Tagged date : UTC 2012-06-03 12:03:08

 

Descarca Videoclip

DESCARCA VIDEOCLIP SERVER 1

DESCARCA VIDEOCLIP SERVER 2

DESCARCA VIDEOCLIP SERVER 3




Total comentarii : 0
avatar

Download Download Videoclipuri Muzica, Download Descarca Muzica Ta Gratuita! | Muzica Noua 2015 | Muzica, Download Download Videoclipuri Noi, Descarca Muzica Gratis - Download Muzica Noua 2014, Download Alexandra Stan - Lemonade, Download Muzica Populara, Download Muzica Straina, Download Muzica Romaneasca, Download Albume Muzica MP3.