Download Alex Velea - Minim doi
Download Alex Velea - Minim doi

Alex Velea - Minim doi

SHARE

Alex Velea - Minim doi

Voteaza

Alex Velea - Minim doi

Rating 0.0/5 (0) voturi

Daca acest fisier, Alex Velea - Minim doi nu se mai poate descarca sau incalca termenii si conditiile site-ului Altrix.ucoz.com ori drepturile PERSONALE ! de autor. CLICK HERE

Adaugat de: altrix - Vineri, 03.08.12, 18:06

Pentru a descarca

Alex Velea - Minim doi

Alege unul din serverele de mai jos

Download Alex Velea - Minim doi Link 1 Download Alex Velea - Minim doi Link 2

0794
Intra pe acszone.hitforum.ro

Iti multumim ca ai descarcat Alex Velea - Minim doi de pe site-ul nostru si speram ca vei reveni in curand sa descarci si alte fisiere asemanatoare cu Alex Velea - Minim doi .

Bine ai venit Pe Altrix.Ucoz.Com !

Aici poti sa gasesti si sa descarci gratis: Muzica Noua 2015, Muzica Gratis, Muzica Romaneasca, Download Free, Manele Noi (2015), Albume Muzica, Muzica Straina (2015), Albume Muzica, Muzica Romaneasca (2015), Albume Muzica, Download Muzica Populara (2015), manele gratis, download muzica gratis, mp3 gratis, manele noi, MP3 noi, Muzica Noua 2014, manele gratis, video manele, download manele 2014, Descarca Muzica Gratis - Download Muzica Noua 2014, Descarca Muzica Ta Gratuita! | Muzica Noua 2015 | Muzica, Download Alex Velea - Minim doi, Download Videoclipuri Muzica, Download Videoclipuri Noi.


Altrix.ucoz.com | Descarca Videoclipuri | Alex Velea - Minim doi

 
 

Informati Despre Videoclip.

 

Format : MPEG-4
Format profile : Base Media / Version 2
Codec ID : mp42
File size : 76.6 MiB
Duration : 3mn 32s
Overall bit rate mode : Variable
Overall bit rate : 3 032 Kbps
Encoded date : UTC 2012-06-24 19:42:11
Tagged date : UTC 2012-06-24 19:42:11
gsst : 0
gstd : 212206
gssd : B5061D144HH1344009505297959
gshh : o-o---preferred---romtele-bbu4---v19---lscache3.c.youtube.com

Video
ID : 1
Format : AVC
Format/Info : Advanced Video Codec
Format profile : High@L3.1
Format settings, CABAC : Yes
Format settings, ReFrames : 1 frame
Codec ID : avc1
Codec ID/Info : Advanced Video Coding
Duration : 3mn 32s
Bit rate : 2 877 Kbps
Maximum bit rate : 5 021 Kbps
Width : 1 280 pixels
Height : 720 pixels
Display aspect ratio : 16:9
Frame rate mode : Constant
Frame rate : 25.000 fps
Color space : YUV
Chroma subsampling : 4:2:0
Bit depth : 8 bits
Scan type : Progressive
Bits/(Pixel*Frame) : 0.125
Stream size : 72.7 MiB (95%)
Tagged date : UTC 2012-06-24 19:42:11

Audio
ID : 2
Format : AAC
Format/Info : Advanced Audio Codec
Format profile : LC
Codec ID : 40
Duration : 3mn 32s
Bit rate mode : Variable
Bit rate : 152 Kbps
Maximum bit rate : 179 Kbps
Channel(s) : 2 channels
Channel positions : Front: L R
Sampling rate : 44.1 KHz
Compression mode : Lossy
Stream size : 3.84 MiB (5%)
Title : IsoMedia File Produced by Google, 5-11-2011
Encoded date : UTC 2012-06-24 19:42:11
Tagged date : UTC 2012-06-24 19:42:11

 

Descarca Videoclip

DESCARCA VIDEOCLIP SERVER 1

DESCARCA VIDEOCLIP SERVER 2

DESCARCA VIDEOCLIP SERVER 3




Total comentarii : 0
avatar

Download Download Videoclipuri Muzica, Download Descarca Muzica Ta Gratuita! | Muzica Noua 2015 | Muzica, Download Download Videoclipuri Noi, Descarca Muzica Gratis - Download Muzica Noua 2014, Download Alex Velea - Minim doi, Download Muzica Populara, Download Muzica Straina, Download Muzica Romaneasca, Download Albume Muzica MP3.