Download Akcent - I'm Sorry feat Sandra N. ( official video HD )

Akcent - I'm Sorry feat Sandra N. ( official video HD )

SHARE

Akcent - I'm Sorry feat Sandra N. ( official video HD )

Voteaza

Akcent - I'm Sorry feat Sandra N. ( official video HD )

Rating 0.0/5 (0) voturi

Daca acest fisier, Akcent - I'm Sorry feat Sandra N. ( official video HD ) nu se mai poate descarca sau incalca termenii si conditiile site-ului Altrix.ucoz.com ori drepturile PERSONALE ! de autor. CLICK HERE

Adaugat de: altrix - Vineri, 03.08.12, 18:45

Pentru a descarca

Akcent - I'm Sorry feat Sandra N. ( official video HD )

Alege unul din serverele de mai jos

Download Akcent - I'm Sorry feat Sandra N. ( official video HD ) Link 1 Download Akcent - I'm Sorry feat Sandra N. ( official video HD ) Link 2

0954
Intra pe acszone.hitforum.ro

Iti multumim ca ai descarcat Akcent - I'm Sorry feat Sandra N. ( official video HD ) de pe site-ul nostru si speram ca vei reveni in curand sa descarci si alte fisiere asemanatoare cu Akcent - I'm Sorry feat Sandra N. ( official video HD ) .

Bine ai venit Pe Altrix.Ucoz.Com !

Aici poti sa gasesti si sa descarci gratis: Muzica Noua 2015, Muzica Gratis, Muzica Romaneasca, Download Free, Manele Noi (2015), Albume Muzica, Muzica Straina (2015), Albume Muzica, Muzica Romaneasca (2015), Albume Muzica, Download Muzica Populara (2015), manele gratis, download muzica gratis, mp3 gratis, manele noi, MP3 noi, Muzica Noua 2014, manele gratis, video manele, download manele 2014, Descarca Muzica Gratis - Download Muzica Noua 2014, Descarca Muzica Ta Gratuita! | Muzica Noua 2015 | Muzica, Download Akcent - I'm Sorry feat Sandra N. ( official video HD ), Download Videoclipuri Muzica, Download Videoclipuri Noi.


Altrix.ucoz.com | Descarca Videoclipuri | Akcent - I'm Sorry feat Sandra N. ( official video HD )

 
 

Informati Despre Videoclip.

 

Format : MPEG-4
Format profile : Base Media / Version 2
Codec ID : mp42
File size : 82.6 MiB
Duration : 4mn 1s
Overall bit rate mode : Variable
Overall bit rate : 2 868 Kbps
Encoded date : UTC 2012-04-17 15:40:15
Tagged date : UTC 2012-04-17 15:40:15
gsst : 0
gstd : 241718
gssd : B5C57E80BHH1344012022972200
gshh : o-o---preferred---romtele-bbu3---v24---lscache3.c.youtube.com

Video
ID : 1
Format : AVC
Format/Info : Advanced Video Codec
Format profile : High@L4.0
Format settings, CABAC : Yes
Format settings, ReFrames : 1 frame
Format settings, GOP : M=1, N=25
Codec ID : avc1
Codec ID/Info : Advanced Video Coding
Duration : 4mn 1s
Bit rate : 2 713 Kbps
Maximum bit rate : 6 907 Kbps
Width : 1 920 pixels
Height : 1 080 pixels
Display aspect ratio : 16:9
Frame rate mode : Constant
Frame rate : 25.000 fps
Color space : YUV
Chroma subsampling : 4:2:0
Bit depth : 8 bits
Scan type : Progressive
Bits/(Pixel*Frame) : 0.052
Stream size : 78.2 MiB (95%)
Tagged date : UTC 2012-04-17 15:40:16

Audio
ID : 2
Format : AAC
Format/Info : Advanced Audio Codec
Format profile : LC
Codec ID : 40
Duration : 4mn 1s
Bit rate mode : Variable
Bit rate : 152 Kbps
Maximum bit rate : 176 Kbps
Channel(s) : 2 channels
Channel positions : Front: L R
Sampling rate : 44.1 KHz
Compression mode : Lossy
Stream size : 4.38 MiB (5%)
Title : IsoMedia File Produced by Google, 5-11-2011
Encoded date : UTC 2012-04-17 15:40:16
Tagged date : UTC 2012-04-17 15:40:16

 

Descarca Videoclip

DESCARCA VIDEOCLIP SERVER 1

DESCARCA VIDEOCLIP SERVER 2

DESCARCA VIDEOCLIP SERVER 3




Total comentarii : 0
avatar

Download Download Videoclipuri Muzica, Download Descarca Muzica Ta Gratuita! | Muzica Noua 2015 | Muzica, Download Download Videoclipuri Noi, Descarca Muzica Gratis - Download Muzica Noua 2014, Download Akcent - I'm Sorry feat Sandra N. ( official video HD ), Download Muzica Populara, Download Muzica Straina, Download Muzica Romaneasca, Download Albume Muzica MP3.